<?xml version="1.0" standalone="no"?>
<!DOCTYPE svg PUBLIC "-//W3C//DTD SVG 1.1//EN" "http://www.w3.org/Graphics/SVG/1.1/DTD/svg11.dtd">
<svg xmlns="http://www.w3.org/2000/svg">
<metadata>Generated by Fontastic.me</metadata>
<defs>
<font id="catchmedia" horiz-adv-x="512">
<font-face font-family="catchmedia" units-per-em="512" ascent="480" descent="-32"/>
<missing-glyph horiz-adv-x="512" />

<glyph glyph-name="dummy" unicode="&#97;" d="M384 64l-320 0 0 288 320 0 0-96 32 0 0 160c0 17-14 32-32 32l-96 0c0 35-28 64-64 64-35 0-64-29-64-64l-96 0c-17 0-32-15-32-32l0-352c0-18 15-32 32-32l320 0c18 0 32 14 32 32l0 64-32 0z m-256 352c15 0 15 0 32 0 18 0 32 14 32 32 0 17 15 32 32 32 18 0 32-15 32-32 0-18 16-32 32-32 16 0 17 0 32 0 16 0 32-15 32-32l-256 0c0 19 14 32 32 32z m-32-256l64 0 0 32-64 0z m224 64l0 64-128-96 128-96 0 64 160 0 0 64z m-224-128l96 0 0 32-96 0z m160 224l-160 0 0-32 160 0z m-96-64l-64 0 0-32 64 0z"/>
<glyph glyph-name="pdown" unicode="&#98;" d="M50 387c-18 0-27-25-14-38l209-218c8-8 20-8 28 0l203 218c13 15 4 38-14 38z"/>
<glyph glyph-name="clone" unicode="&#99;" d="M67 372l0-315c0-20 16-37 37-37l221 0c20 0 37 17 37 37l0 315c0 20-16 37-37 37l-221 0c-21 1-37-17-37-37z m268 0l0-315c0-6-5-11-11-11l-221 0c-6 1-11 5-11 11l0 315c0 6 5 11 11 11l221 0c6 0 11-5 11-11z m73-243c-8 0-14-6-14-13 0-7 6-14 14-14 20 0 37 17 37 37l0 316c0 20-16 37-37 37l-220 0c-20 0-37-17-37-37 0-8 6-14 13-14 7 0 13 6 13 14 0 6 5 11 11 11l221 0c6 0 11-5 11-11l0-315c-1-6-5-11-12-11z"/>
<glyph glyph-name="campaign" unicode="&#100;" d="M28 183l105-30c-5-51 27-98 75-112 48-14 100 10 123 54l82-23 52-53c4-4 8-5 13-5 2 0 5 0 7 1 7 2 11 9 11 15 0 101 0 204 0 305 0 47 0 94 0 141 1 7-4 14-12 18-2 1-5 1-7 1-5 0-10-2-13-7l-51-51-385-108c-8-2-13-10-13-17l0-111c0-8 5-16 13-18z m412 233l21 20 0-362-21 20z m-221-341c-31 9-51 37-50 67l128-36c-15-26-47-39-78-31z m-169 224l356 101 0-288-356 101z"/>
<glyph glyph-name="share-active" unicode="&#101;" d="M20 256c0-49 40-89 90-89 28 0 54 13 70 35l137-77c-3-9-5-20-5-30 0-49 40-89 89-89 50 0 89 40 89 89 0 49-39 89-89 89-28 0-54-13-70-34l-136 76c3 10 5 20 5 30 0 10-2 20-5 30l137 76c16-21 42-34 70-34 50 0 90 40 90 89 0 49-40 89-90 89-49 0-89-40-89-89 0-10 2-21 5-30l-137-77c-16 22-42 35-70 35-51 0-91-40-91-89z"/>
<glyph glyph-name="share" unicode="&#102;" d="M110 172c28 0 54 13 70 33l138-72c-3-9-5-18-5-28 0-46 40-83 89-83 50 0 90 37 90 83 0 47-40 84-90 84-28 0-54-13-70-32l-137 71c3 9 5 19 5 28 0 10-2 19-5 28l137 71c16-20 42-32 70-32 50 0 90 37 90 84 0 47-40 85-90 85-49 0-89-38-89-84 0-11 2-20 5-28l-137-72c-16 21-42 33-70 33-51-1-91-39-91-85 0-46 40-84 90-84z m292-9c34 0 62-26 62-58 0-31-28-57-62-57-33 0-61 26-61 57 0 31 28 58 61 58z m0 302c34 0 62-26 62-57 0-32-28-58-62-58-33 0-61 26-61 58 0 31 28 57 61 57z m-292-151c33 0 61-25 61-57 0-32-28-57-61-57-34 0-62 25-62 57 0 32 28 57 62 57z"/>
<glyph glyph-name="pup" unicode="&#103;" d="M238 381l-203-218c-13-15-4-38 14-38l412 0c18 0 27 25 14 38l-209 218c-7 9-20 8-28 0z"/>
<glyph glyph-name="arrow-left" unicode="&#104;" d="M379 492c-5 5-14 5-20 0l-226-227c-5-5-5-14 0-19l226-226c3-3 7-4 10-4 3 0 7 1 9 4 5 6 5 15 0 20l-216 216 217 216c5 6 5 14 0 20z"/>
<glyph glyph-name="arrow-right" unicode="&#105;" d="M133 20c5-5 14-5 20 0l226 227c5 5 5 14 0 19l-226 226c-3 3-7 4-10 4-3 0-7-1-9-4-5-6-5-15 0-20l216-216-217-216c-5-6-5-14 0-20z"/>
<glyph glyph-name="churn-reduction" unicode="&#106;" d="M256 341c-47 0-85-38-85-85 0-47 38-85 85-85 47 0 85 38 85 85 0 47-38 85-85 85z m0-142c-32 0-57 25-57 57 0 32 25 57 57 57 32 0 57-25 57-57 0-32-25-57-57-57z m232 70l-97 0c-7 0-13-6-13-13 0-67-54-121-121-121-67 0-121 54-121 121 0 67 54 121 121 121 30 0 58-11 81-32 5-5 14-4 19 1 5 5 4 14-1 20-23 21-54 34-86 37l0 33c20-1 39-6 58-13 20-8 39-21 54-36 5-5 14-5 19 0 6 5 6 14 0 20-18 17-40 31-62 42-22 9-44 14-68 16l0 23c-2 8-8 14-15 14-7 0-13-6-13-14l0-24c-105-7-188-90-195-195l-24 0c-8 0-14-6-14-13 0-7 6-13 14-13l24 0c7-105 90-188 195-195l0-24c0-8 6-14 13-14 7 0 13 6 13 14l0 24c105 7 188 90 195 195l24 0c8 0 14 6 14 13 0 7-6 13-14 13z m-245 167l0-33c-71-6-128-63-134-134l-33 0c6 89 78 161 167 167z m0-360c-89 6-161 78-167 167l33 0c6-71 63-128 134-134z m26 0l0 33c71 6 128 63 134 134l33 0c-6-89-78-161-167-167z"/>
<glyph glyph-name="newsfeed" unicode="&#107;" d="M104 22l305 0c48 0 88 39 88 88l0 329c0 7-5 13-13 13-7 0-12-6-12-13l0-330c0-35-29-64-63-64l-305 0c-34 0-63 29-63 64l0 357 365 0 0-321c0-7 5-12 12-12 7 0 12 5 12 12l0 333c0 7-5 12-12 12l-389 0c-7 0-13-5-13-12l0-368c0-50 39-88 88-88z m253 372c8 0 13 5 13 13 0 7-5 12-13 12l-271 0c-7 0-12-5-12-12 0-8 5-13 12-13z m-271-254l271 0c8 0 13 5 13 13 0 7-5 12-13 12l-271 0c-7 0-12-5-12-12 0-8 5-13 12-13z m-16 210l0-134c0-7 5-12 12-12l135 0c7 0 12 5 12 12l0 134c0 7-5 12-12 12l-135 0c-7 0-12-5-12-12z m24-12l111 0 0-110-111 0z m270 12l-90 0c-7 0-12-5-12-12 0-7 5-12 12-12l90 0c7 0 12 5 12 12 1 7-5 12-12 12z m0-56l-90 0c-7 0-12-5-12-12 0-8 5-13 12-13l90 0c7 0 12 5 12 13 0 7-5 12-12 12z m13-72c0 7-5 12-12 12l-90 0c-7 0-12-5-12-12 0-7 5-12 12-12l90 0c6 0 12 5 12 12z"/>
<glyph glyph-name="menu" unicode="&#108;" d="M24 232l369 0c14 0 24 11 24 24 0 13-10 24-24 24l-369 0c-1 0-4-1-4-4l0-40c0-3 3-4 4-4z m0 118l259 0c13 0 23 10 23 24 0 13-10 23-23 23l-259 0c-2 0-4-1-4-3l0-41c0-2 3-3 4-3z m0-235l443 0c13 0 23 10 23 23 0 14-10 24-23 24l-443 0c-2 0-4-1-4-3l0-41c0-2 3-3 4-3z"/>
<glyph glyph-name="drawer-menu" unicode="&#109;" d="M211 492l-163 0c-15 0-28-13-28-28l0-163c0-15 13-28 28-28l163 0c15 0 28 13 28 28l0 163c1 15-13 28-28 28z m11-191c0-6-5-11-11-11l-163 0c-6 0-11 5-11 11l0 163c0 6 5 11 11 11l163 0c6 0 11-5 11-11z m79-29l163 0c15 0 28 13 28 28l0 164c0 15-13 28-28 28l-163 0c-15 0-28-13-28-28l0-163c-1-15 13-29 28-29z m-11 192c0 6 5 11 11 11l163 0c6 0 11-5 11-11l0-163c0-6-5-11-11-11l-163 0c-6 0-11 5-11 11z m-270-416c0-15 13-28 28-28l163 0c15 0 28 13 28 28l0 163c0 15-13 28-28 28l-163 0c-15 0-28-13-28-28z m17 163c0 6 5 11 11 11l163 0c6 0 11-5 11-11l0-163c0-6-5-11-11-11l-163 0c-6 0-11 5-11 11z m245-89l92 0 0-92c0-5 4-8 8-8 5 0 8 4 8 8l0 92 92 0c5 0 8 4 8 8 0 5-4 8-8 8l-92 0 0 92c0 6-4 9-8 9-5 0-8-5-8-9l0-92-92 0c-6 0-9-4-9-8-1-5 3-8 9-8z"/>
<glyph glyph-name="notifications" unicode="&#110;" d="M490 84c0 42-29 77-69 86l0 120c0 75-49 137-117 159l0 4c0 26-21 49-49 49-27 0-49-22-49-49l0-4c-68-21-117-84-117-159l0-120c-40-9-69-45-69-86l0-10 153 0c10-36 44-62 82-62 38 0 72 26 82 62l153 0z m-235 397c15 0 29-12 29-28-10 2-19 3-29 3-10 0-19-1-29-3 0 16 14 28 29 28z m0-448c-27 0-50 16-60 41l120 0c-10-25-33-41-60-41z m-214 61c5 30 29 53 59 58l37 0 0 20-27 0 0 118c0 80 65 145 145 145 80 0 145-65 145-145l0-118-203 0 0-20 213 0c30-5 54-28 59-58z"/>
<glyph glyph-name="tray-active" unicode="&#111;" d="M104 479c-12 0-20-8-20-20l0-263 81 0 0-41c0-23 18-41 41-41l101 0c23 0 41 18 41 41l0 41 81 0 0 141-81 0c-22 0-41 18-41 41l0 101z m-81-446l465 0 0 142-120 0 0-31c0-28-23-50-51-50l-121 0c-29 0-51 23-51 50l0 31-122 0z"/>
<glyph glyph-name="more-options" unicode="&#112;" d="M256 502c-20 0-37-17-37-37 0-21 15-37 37-37 20 0 37 15 37 37 0 20-17 37-37 37z m0-199c-20 0-37-16-37-37 0-20 17-37 37-37 20 0 37 17 37 37 0 22-17 37-37 37z m0-219c-20 0-37-16-37-37 0-20 15-37 37-37 20 0 37 16 37 37 0 21-17 37-37 37z"/>
<glyph glyph-name="workspace" unicode="&#113;" d="M115 50c32 0 62 17 80 44 4 6 2 15-5 19-6 4-14 2-18-4-12-20-34-32-57-32-37 0-68 31-68 67 0 37 31 68 68 68 23 0 46-12 58-34 4-6 12-8 18-5 7 4 9 12 6 18-17 29-49 47-81 47-53 0-94-42-94-95-2-51 40-93 93-93z m377 124c0 7-7 13-14 13l-224 0c-7 0-13-6-13-13 0-7 6-13 13-13l223 0c8 0 15 6 15 13z m-84-58c0 7-7 13-14 13l-140 0c-7 0-13-6-13-13 0-7 6-14 13-14l140 0c7-1 14 6 14 14z m-293 157c52 0 94 42 94 95 0 52-42 94-94 94-53 0-95-42-95-94 0-53 42-95 95-95z m0 162c37 0 67-31 67-67 0-37-30-68-67-68-37 0-68 31-68 68 0 36 31 67 68 67z m363-24l-224 0c-7 0-13-7-13-14 0-7 6-13 13-13l223 0c7 0 13 6 13 13 2 7-5 14-12 14z m-224-86l140 0c7 0 14 6 14 13 0 7-7 13-14 13l-140 0c-7 0-13-6-13-13 0-7 6-13 13-13z"/>
<glyph glyph-name="report-to-ceo" unicode="&#114;" d="M51 349l0-231c-17-7-31-26-31-47 0-28 21-51 47-51l379 0c26 0 46 23 46 51 0 27-21 50-46 50l-369 0 0 228c0 22 15 39 35 39l288 0c20 0 35-17 35-39l0-161c0-8 6-14 14-14 7 0 13 6 13 14l0 161c0 37-28 67-61 67l-143 0c-12 0-21 10-21 23 0 14 10 24 21 24 8 0 15-5 20-12 3-8 11-10 17-6 6 5 8 13 5 20-9 16-25 27-42 27-27 0-47-24-47-53 0-8 2-16 5-23l-104 0c-34 0-61-31-61-67z m394-257c12 0 20-10 20-21 0-13-9-22-20-22l-378 0c-12 0-20 10-20 22-1 11 8 21 20 21z m-255 243c-44 0-79-39-79-87 0-48 35-87 79-87 44 0 80 39 80 87 0 8-6 14-13 14l-54 0 0 60c1 7-5 13-13 13z m54-102c-6-25-27-45-53-45-29 0-54 27-54 60 0 27 18 51 41 57l0-57c0-8 6-15 13-15z m144 90l-69 0c-7 0-13-7-13-15 0-8 6-14 13-14l69 0c7 0 13 6 13 14-1 8-6 15-13 15z m0-61l-69 0c-7 0-13-6-13-14 0-8 6-15 13-15l69 0c7 0 13 7 13 15-1 7-6 14-13 14z m0-61l-69 0c-7 0-13-6-13-15 0-8 6-14 13-14l69 0c7 0 13 6 13 14-1 9-6 15-13 15z"/>
<glyph glyph-name="calendar-collapse" unicode="&#115;" d="M24 24c4-6 12-6 16 0l121 120 0-65c0-6 5-11 11-11 6 0 12 5 12 11l0 95c0 6-5 11-12 11l-92 0c-6 0-11-5-11-11 0-6 5-12 11-12l65 0-121-121c-5-5-5-12 0-17z m464 464c-4 5-12 5-16 0l-122-121 0 65c0 6-5 11-12 11-6 0-11-5-11-11l0-94c0-6 5-11 11-11l94 0c6 0 11 5 11 11 0 6-5 11-11 11l-65 0 121 122c5 5 5 12 0 17z"/>
<glyph glyph-name="trending-reports" unicode="&#116;" d="M30 91c8 0 14 6 14 14l0 351c0 7 6 13 13 13l9 0c7 0 13-6 13-13l0-423c0-1 0-1 0-2 0-1 0-1 0-2 0-9 6-15 14-15l250 0c8 0 14 6 14 15 0 8-6 14-14 14l-235 0 0 35 45 0c0 0 0 0 1 0l303 0c7 0 13-6 13-13l0-9c0-7-6-13-13-13l-30 0c-8 0-14-6-14-14 0-9 6-15 14-15l30 0c22 0 41 19 41 41l0 8c0 23-19 41-41 41l-32 0 0 93c0 8-6 14-14 14-9 0-15-6-15-14l0-93-210 0 140 142 23-24c3-3 8-5 12-5 10 0 17 7 18 15l18 141c1 5-1 10-4 14-4 4-10 7-16 6l-140-18c-8-1-13-5-15-13-2-6-1-13 4-18l24-23-144-144 0 216 101 0c8 0 14 6 14 15 0 8-6 14-14 14l-101 0 0 34c0 22-18 41-40 41l-10 0c-22 0-41-19-41-41l0-351c0-8 7-14 15-14z"/>
<glyph glyph-name="view-metrics" unicode="&#117;" d="M49 337c2 0 4 0 6 1l96-121c-3-4-4-8-4-12 0-17 15-31 31-31 17 0 31 13 31 31 0 4-1 8-3 12 0 0 0 0 1 1 2 1 6 3 11 6 9 5 23 13 35 20 23 12 42 22 47 25 5-5 13-9 22-9 7 0 14 3 19 7 2-2 5-4 8-7 9-7 22-17 34-27 25-19 49-36 50-37-1-3-1-7-1-10 0-16 14-30 31-30 16 0 31 14 31 30 0 17-15 31-31 31-6 0-12-2-18-5-1 1-25 18-49 37-12 9-24 19-34 26-4 5-8 7-10 9 0 2 1 4 1 7 0 16-14 31-30 31-17 0-31-14-31-31 0-1 0-3 0-4-4-2-24-13-47-26-14-7-26-14-36-20-5-3-9-5-11-7-1-1-2-2-3-2-5 2-10 5-15 5-5 0-10-3-14-5l-92 117c4 5 7 12 7 20 0 16-14 30-31 30-16 0-31-14-31-30-1-19 14-32 30-32z"/>
<glyph glyph-name="save-template" unicode="&#118;" d="M81 20l350 0c34 0 61 27 61 61l0 304-107 107-304 0c-34 0-61-27-61-61l0-350c0-34 27-61 61-61z m-35 411c0 20 15 35 35 35l294 0 91-91 0-294c0-19-15-34-34-34l-351 0c-19 0-34 15-34 34l0 350z m315-1l-267 0 0-123 268 0 0 123z m-25-96l-216 0 0 69 216 0z m-80-79c-49 0-89-40-89-89 0-49 40-89 89-89 49 0 89 40 89 89 0 49-40 89-89 89z m0-153c-35 0-63 29-63 64 0 35 28 62 63 62 35 0 63-28 63-62 0-35-28-64-63-64z"/>
<glyph glyph-name="edit" unicode="&#119;" d="M99 22c2-2 3-2 5-2 2 0 5 0 6 2l97 57c1 1 3 2 3 3l205 335c5 8 2 19-6 24l-78 47c-8 6-20 2-25-6l-204-334c-1-1-1-3-1-5l-6-112c-1-3 1-7 4-9z m23 118l201 330 73-45-201-330-79-46z"/>
<glyph glyph-name="pause" unicode="&#120;" d="M174 60l0 392c0 20-17 37-38 37-20 0-38-17-38-37l0-391c0-20 18-37 38-37 21 0 38 16 38 36z m-60 0l0 392c0 12 10 22 22 22 12 0 23-10 23-22l0-391c0-12-11-22-23-22-12-1-22 9-22 21z m300 0l0 392c0 20-18 37-38 37-21 0-38-17-38-37l0-391c0-20 17-37 38-37 20 0 38 16 38 36z m-61 0l0 392c0 12 11 22 23 22 12 0 22-10 22-22l0-391c0-12-10-22-22-22-12-1-23 9-23 21z"/>
<glyph glyph-name="compare" unicode="&#121;" d="M225 378c-4 4-11 4-15 0-8-8-16-18-23-27-3-5-2-11 3-15 6-3 12-2 16 3 6 8 12 16 19 23 3 5 4 12 0 16z m-63-162c1-5 6-8 11-8 1 0 2 0 3 0 6 1 9 7 8 13-2 10-4 21-4 31 0 6-5 11-11 11-6 0-11-5-11-11 0-12 1-24 4-36z m6 57l2 0c5 0 10 5 11 10 2 10 5 19 9 29 3 5 0 13-6 15-5 2-12 0-14-6-4-12-8-23-10-34-1-6 2-12 8-14z m314 10c5 2 8 7 7 12-3 11-7 22-12 33-3 5-9 7-15 4-5-3-7-8-5-14l0 1c4-9 8-19 10-28 4-6 10-9 15-8z m-47 101c-4 4-11 3-15-1-4-4-3-11 1-15 8-8 15-15 21-23 4-5 11-6 16-2 5 4 6 10 2 15-7 11-16 19-25 26z m-129 17c10 2 21 2 31 1 6 0 11 5 11 11 0 6-4 11-10 11-11 1-24 1-35-1-6 0-10-5-10-11 0-6 5-11 11-11z m-73-16c3-3 6-5 10-5 2 0 4 0 6 1 9 5 18 10 27 13 7 2 10 8 8 14-2 6-9 9-14 7 0 0 0 0-1 0-11-4-21-9-31-16-6-3-8-9-5-14z m-60-202c5-10 11-20 18-29 5-6 11-6 16-1 4 4 5 10 2 14-6 8-11 17-16 27-3 5-9 8-15 6-5-2-8-9-6-15 1-1 1-2 1-2z m226-67c2-3 5-5 10-5 2 0 4 1 6 2 10 6 19 13 27 21 4 4 4 11-1 16-4 4-10 4-14 0l0-2c-7-7-15-13-25-18-5-3-6-9-3-14z m51 41c5-3 11-2 15 3 7 10 12 20 17 31l-10 5-10 4c-4-10-9-19-15-27-4-6-2-12 3-16z m45 99c0 2 0 3 0 5 0 6-6 11-12 10-6-1-11-5-10-11 0-1 0-3 0-4 0-9-1-17-2-27-1-6 3-11 8-12l2 0c5 0 11 4 12 9 1 10 2 20 2 30z m-88 148c-6 4-11 6-16 8-5 2-11 4-16 6-6 2-13-2-14-7-1-5 3-13 8-14 5-1 10-3 14-5 5-2 9-4 13-6 2-1 3-1 5-1 5 0 8 2 10 5 3 5 1 11-4 14z m-162-296c5-4 12-2 15 4 3 5 1 12-4 15-9 5-17 11-26 17-4 4-11 3-15-1-4-4-3-11 1-15 9-8 18-15 29-20z m90-10c0-6 5-10 11-10l2 0c11 2 24 4 35 8 6 2 9 8 7 15-2 6-8 9-14 7-9-3-20-6-30-7-7-1-11-7-11-13z m-21 11c-10 1-20 3-29 6-6 2-13-2-14-7-2-7 2-13 8-14 11-3 22-5 34-6l1 0c7 0 12 4 12 10-1 5-5 11-12 11z m-154-20c8-1 16-2 24-2 11 0 20 1 29 2 6 1 10 7 9 12-1 7-7 11-12 10-80-15-157 40-170 119-14 80 40 157 120 170 8 1 16 2 24 2 9 0 18-1 26-2 6-1 11 3 12 10 1 6-3 11-9 12-92 15-179-48-194-140-15-92 49-179 141-193z m110 47c-5-3-6-10-3-15 3-5 11-6 16-3 0 0 0 0 1 1 75 54 92 161 38 235-5 6-10 13-15 18-4 4-11 4-15 0-4-4-4-12 0-16 56-58 54-151-5-208-6-4-12-8-17-12z"/>
<glyph glyph-name="clone-1" unicode="&#122;" d="M133 12l367 0 0 367-121 0 0 120-366 0 0-366 120 0z m329 347l18 0 0-326-327 0 0 327 142 0c79-1 156-1 167-1z m-429-206l0 327 327 0 0-101-227 0 0-226z"/>
<glyph glyph-name="accept" unicode="&#65;" d="M176 79l29 29 295 296-29 29-295-297-135 133-29-27z"/>
<glyph glyph-name="search" unicode="&#66;" d="M30 289c0-107 86-193 192-193 48 0 92 18 126 47l110-109c3-3 6-4 9-4 3 0 7 1 9 4 5 5 5 13 0 19l-108 110c29 34 47 78 47 126 0 106-86 192-193 192-105 1-192-86-192-192z m192 166c91 0 166-75 166-166 0-91-74-166-166-166-91 0-166 75-166 166 1 92 75 166 166 166z"/>
<glyph glyph-name="menu-1" unicode="&#67;" d="M475 272l-438 0c-9 0-17-7-17-16 0-9 8-16 17-16l439 0c9 0 17 7 17 16 0 9-9 16-18 16z m0 164l-438 0c-9 0-17-7-17-16 0-9 8-17 17-17l439 0c9 0 17 8 17 17 0 9-9 16-18 16z m-438-360l439 0c9 0 17 7 17 16 0 9-8 17-17 17l-439 0c-9 0-17-8-17-17 0-9 8-16 17-16z"/>
<glyph glyph-name="sort" unicode="&#68;" d="M137 19c7 0 13 6 13 13l0 419 73-74c2-2 5-4 8-4 3 0 7 1 9 4 5 5 5 12 0 17l-95 94c-4 5-12 5-17 0l-94-94c-5-5-5-12 0-17 5-5 12-5 17 0l74 74 0-419c0-7 6-13 12-13z m238 474c-7 0-13-6-13-13l0-419-73 74c-5 5-13 5-18 0-5-5-5-12 0-17l95-94c2-2 5-5 8-5 3 0 6 1 8 5l94 94c5 5 5 12 0 17-5 5-12 5-17 0l-72-74 0 419c0 7-6 13-12 13z"/>
<glyph glyph-name="tray" unicode="&#69;" d="M362 476l-3 3-278 0 0-192-56-98c-1-1-1-2-1-3 0-1-1-2-1-3l0-122c0-15 13-27 29-27l406 0c16 0 29 12 29 27l0 121c0 1 0 2-1 3 0 1 0 2-1 3l-54 99 0 125z m3-22l37-35-37 0z m-267-139l0 149 250 0 0-48c0-7 6-13 14-13l53 0 0-212-55 0c-6 0-11-2-14-5-1-1-2-2-3-4 0 0 0-1-1-1-1-2-2-5-2-8l0-31c0-2-2-4-4-4l-159 0c-2 0-4 2-4 4l0 31c0 3-1 6-2 8 0 0 0 1-1 1 0 0 0 1-1 1-1 1-1 2-2 3-4 3-9 5-14 5l-55 0z m-17-61l0-63-36 0z m391-194c0-7-6-12-13-12l-406 0c-7 0-13 5-13 12l0 116 113 0c1 0 2 0 3-1 0 0 1-1 1-2 0 0 0-1 0-1l0-31c0-4 1-7 3-10 4-5 10-8 17-8l159 0c7 0 13 3 17 8 2 3 3 6 3 10l0 31c0 0 0 1 0 1 0 1 0 1 1 2 1 1 2 1 3 1l113 0 0-116z m-5 131l-36 0 0 63z"/>
<glyph glyph-name="edit-2" unicode="&#70;" d="M109 299l200 0c7 0 14 6 14 13 0 7-7 14-14 14l-200 0c-8 0-14-7-14-14 0-7 6-13 14-13z m0 65l80 0c8 0 14 6 14 13 0 7-6 13-14 13l-80 0c-8 0-14-6-14-13 0-7 6-13 14-13z m215-116c0 7-7 13-14 13l-201 0c-8 0-14-6-14-13 0-7 6-14 14-14l200 0c8 0 15 7 15 14z m-65-65c0 7-6 14-13 14l-137 0c-8 0-14-7-14-14 0-7 6-13 14-13l137 0c7 0 13 6 13 13z m-150-51c-8 0-14-6-14-13 0-7 6-14 14-14l112 0c7 0 13 7 13 14 0 7-6 13-13 13z m150-96l-217 0 0 440 223 0 0-112 113 0 0-145 26 0 0 164-120 120-269 0 0-493 244 0z m32 422l67-68-67 0z m-9-445c2-1 4-2 7-2 3 0 7 1 9 4l3 3 63 18 124 125c6 5 9 13 9 20 0 8-3 16-9 21l-23 23c-11 12-30 12-41 0l-125-125-17-62-3-3c-5-4-6-11-3-17l-1-6z m160 193c1 1 3 1 4 0l23-23c1-1 1-1 1-2 0-1 0-1-1-2l-18-19-27 26z m-38-37l27-27-75-74-26 26z m-87-101l14-14-19-5z"/>
<glyph glyph-name="down-arrow" unicode="&#71;" d="M256 122l228 228-39 40-189-189-189 189-39-40z"/>
<glyph glyph-name="minimize" unicode="&#72;" d="M17 483l0-454c0-6 6-13 13-13l454 0c6 0 13 6 13 13l0 218c0 6-5 12-13 12-6 0-12-5-12-12l0-206-431 0 0 430 207 0c6 0 12 5 12 12 0 6-5 13-12 13l-219 0c-6 0-12-7-12-13z m478 0c0 6-6 13-13 13l-166 0c-6 0-12-6-12-13l0-167c0-6 5-12 12-12l167 0c6 0 13 5 13 12l0 167z m-24-154l-142 0 0 142 142 0z m-193-51c-3 2-6 3-9 3-3 0-6-1-8-3l-136-137 0 78c0 6-5 12-12 12-7 0-13-5-13-12l0-106c0-7 5-13 13-13l107 0c6 0 12 5 12 13 0 7-5 12-12 12l-78 0 136 135c4 5 4 12 0 18z"/>
<glyph glyph-name="newsfeed-active" unicode="&#73;" d="M103 20l306 0c49 0 88 40 88 89l0 331c0 7-5 13-13 13-7 0-12-6-12-13l0-331-42 35 0 335c0 7-5 13-12 13l-390 0c-8 0-13-6-13-13l0-369c0-50 39-90 88-90z m254 120l-272 0c-7 0-12 5-12 13 0 7 5 12 12 12l272 0c8 0 13-5 13-12 0-8-5-13-13-13z m8 70l-91 0c-7 0-12 5-12 12 0 7 5 12 12 12l91 0c7 0 12-5 12-12 0-7-5-12-12-12z m0 59l-91 0c-7 0-12 5-12 13 0 7 5 12 12 12l91 0c7 0 12-5 12-12 0-8-5-13-12-13z m12 69c0-7-5-12-12-12l-91 0c-7 0-12 5-12 12 0 7 5 12 12 12l91 0c7 1 12-5 12-12z m-292 82l272 0c8 0 13-5 13-12 0-8-5-13-13-13l-272 0c-7 0-12 5-12 13 0 7 6 12 12 12z m-16-69c0 7 5 13 12 13l135 0c7 0 12-6 12-13l0-135c0-7-5-12-12-12l-135 0c-7 0-12 5-12 12z"/>
<glyph glyph-name="home" unicode="&#74;" d="M29 262l21 20 0-276 412 0 0 277 21-20c5-4 14-4 18 1 2 2 3 5 3 9 0 3-1 7-4 9l-72 66 0 113-92 0 0-28-80 74-244-226c-2-2-4-6-4-9 0-3 1-6 3-9 4-5 13-5 18-1z m274-231l-93 0 0 174c0 2 2 4 4 4l85 0c2 0 4-2 4-4z m57 405l43 0 0-66-43 40z m-285-131l181 168 181-169 0-273-109 0 0 174c0 15-14 28-29 28l-85 0c-15 0-29-13-29-28l0-174-110 0z"/>
<glyph glyph-name="dash-audience" unicode="&#75;" d="M499 159c-4 26-17 47-36 62-3 2-6 4-9 6 12 13 19 29 20 45 1 19-6 37-18 51-25 25-66 27-91 5-14-12-22-27-24-43-2-22 4-41 20-57l-7-5c-1 1-2 2-4 3-5 5-10 10-16 14-6 4-12 8-18 11 0 0-1 1-1 1 18 15 28 37 29 60 1 26-9 53-27 69-33 32-87 32-120 0-19-17-28-43-27-69 1-23 11-44 29-60-15-7-28-18-39-30l-7 5c12 13 19 29 20 45 1 19-6 37-19 51-26 25-68 26-95 1-13-14-20-32-20-51 1-17 8-33 20-46-14-9-24-20-32-33-15-24-17-51-17-76 0-6 4-12 12-12 1 0 3 0 5 0l460 0c6 0 9 2 11 5 2 2 3 6 3 10l0 7c0 10-1 20-2 31z m-91 160c11 0 22-5 30-13 8-8 13-19 13-31 0-23-20-43-43-43-12 0-23 6-31 14-8 8-12 19-12 30 0 25 19 43 43 43z m-215-2c0 18 6 33 18 45 12 13 28 19 45 19 16 0 33-6 45-19 12-12 18-27 18-45 0-34-28-63-63-63-35 0-63 29-63 63z m-89 2c12 0 23-4 31-12 8-8 12-18 12-31 0-11-5-22-13-30-8-8-19-13-31-13-11 0-22 6-30 14-8 8-13 19-13 31 2 23 21 41 44 41z m35-123c-4-10-8-19-11-28-3-9-5-20-6-29-1-3-1-6-2-8l-85 0c0 1 0 2 0 3 0 6 1 12 2 20 4 27 18 47 43 59 1 0 2 0 3 0 13-4 28-4 41 0 1 0 3 0 4 0 5-2 9-5 13-8l1-1c0-3-2-5-3-8z m6-65c1 11 3 22 7 32 10 31 27 53 54 67 1 0 2 1 3 1l2 1c8 5 13 5 20 2 18-6 36-5 57 3 1 0 3 0 4 0 31-12 52-32 65-66 5-12 9-26 10-40z m246 0c-2 27-9 50-23 73l1 1c5 3 10 6 15 9 14-5 29-5 44 0 0 0 2 0 3-1 28-13 42-35 44-68 0-4 1-8 1-13l0-1z"/>
<glyph glyph-name="edit-1" unicode="&#76;" d="M318 382c-5 0-9-4-9-9l0-258-53-69-52 69 0 257c0 5-4 9-9 9-6 0-10-4-10-9l0-260c0-2 1-4 2-7l63-80c2-2 5-5 7-5 2 0 6 2 7 5l63 80c1 3 2 5 2 7l0 260c-1 5-5 10-11 10z m-71-10l0-240c0-5 4-9 9-9 5 0 9 4 9 9l0 240c0 5-4 9-9 9-5 0-9-4-9-9z m-53 30l123 0c6 0 10 5 10 10l0 42c0 20-17 38-38 38l-68 0c-20 0-38-17-38-38l0-43c1-4 5-9 11-9z m10 52c0 10 8 18 18 18l68 0c10 0 18-8 18-18l0-33-104 0z"/>
<glyph glyph-name="delete" unicode="&#77;" d="M208 104l0 232c0 4-3 6-6 6-3 0-7-2-7-6l0-232c0-4 3-6 6-6 3 0 7 2 7 6z m-7-11c-6 0-12 5-12 11l0 232c0 6 6 11 12 11 6 0 11-5 11-11l0-232c1-6-5-11-11-11z m0 244c-1 0-1-1-1-1l0-232c0-2 3-2 3 0l0 232c0 1-1 1-2 1z m61-233l0 232c0 4-3 6-6 6-4 0-6-3-6-6l0-232c0-4 3-6 6-6 4 0 6 2 6 6z m-6-11c-6 0-11 5-11 11l0 232c0 6 5 11 11 11 6 0 11-5 11-11l0-232c0-6-5-11-11-11z m0 244c-1 0-1-1-1-1l0-232c0-2 3-2 3 0l0 232c-1 1-1 1-2 1z m133 1l0-250c0-8-3-16-9-22-6-7-14-10-23-10l-202 0c-9 0-17 3-23 10-6 6-9 14-9 22l0 250c0 1-1 1-1 1 0 0-1-1-1-1l0-250c0-9 4-18 10-25 6-6 15-10 25-10l201 0c10 0 19 4 25 10 6 8 10 16 10 25l0 250c0 1-3 1-3 0z m2 11c-4 0-8-3-10-6l-2 0 0-255c0-6-2-11-6-15-4-4-9-6-16-6l-202 0c-7 0-12 2-16 6-4 3-6 9-6 15l0 250c0 6-5 11-11 11-6 0-11-5-11-11l0-250c0-12 5-23 13-32 8-8 19-13 32-13l201 0c13 0 24 5 32 13 8 9 13 21 13 32l0 250c0 6-5 11-11 11z m6-261c0-11-4-21-12-29-7-7-17-12-29-12l-201 0c-12 0-22 4-29 12-7 8-12 18-12 29l0 250c0 4 3 6 6 6 4 0 6-3 6-6l0-250c0-7 3-14 8-19 5-6 11-9 20-9l201 0c7 0 15 3 20 9 5 5 8 11 8 19l0 250c0 4 3 6 6 6 3 0 6-3 6-6l0-250z m-6 256c-4 0-6-3-6-6l0-250c0-7-3-14-8-19-5-6-11-9-20-9l-202 0c-8 0-15 3-20 9-5 5-8 11-8 19l0 250c0 4-3 6-6 6-4 0-6-3-6-6l0-250c0-11 4-21 12-29 7-7 17-12 29-12l201 0c12 0 22 4 29 12 7 8 12 18 12 29l0 250c-1 3-4 6-7 6z m1-256c0-9-4-18-10-25-6-6-15-10-25-10l-202 0c-10 0-19 4-25 10-6 8-10 16-10 25l0 250c0 1 1 1 1 1 0 0 2 0 2-1l0-250c0-8 3-16 9-22 6-7 14-10 23-10l201 0c9 0 17 3 23 10 6 6 9 14 9 22l1 250c0 2 3 2 3 0z m-80 16l0 232c0 1-1 1-1 1 0 0-1-1-1-1l0-232c-1-2 2-2 2 0z m11 0l0 232c0 6-6 11-12 11-6 0-11-5-11-11l0-232c0-6 5-11 11-11 6 0 12 5 12 11z m-19 0l0 232c0 4 3 6 6 6 4 0 6-3 6-6l0-232c0-4-3-6-6-6-3 0-6 2-6 6z m13 0l0 232c0 4-3 6-6 6-4 0-6-3-6-6l0-232c0-4 3-6 6-6 3 0 6 2 6 6z m-8 0l0 232c0 1 1 1 1 1 0 0 1-1 1-1l0-232c1-2-2-2-2 0z m-110 320c0 8 3 16 9 22 6 7 14 10 22 10l51 0c8 0 16-3 22-10 6-6 9-14 9-22 0-2 3-2 3 0 0 9-4 18-10 25-7 6-15 10-24 10l-51 0c-9 0-18-4-24-10-6-7-10-16-10-25 0-1 3-1 3 0z m-2-11c6 0 11 5 11 11 1 6 3 12 7 16 4 4 9 6 15 6l51 0c6 0 12-2 16-6 4-4 6-9 6-15 0-6 5-11 11-11 7 0 12 5 12 11 0 12-5 24-14 32-8 8-19 13-31 13l-51 0c-12 0-23-5-31-13-9-8-14-20-14-32 0-7 5-12 12-12z m6 40c7 7 17 12 28 12l51 0c11 0 21-4 28-12 7-8 13-18 13-29 0-4-4-6-7-6-3 0-6 3-6 6 0 7-3 14-8 19-5 6-11 9-19 9l-51 0c-7 0-14-3-19-9-5-5-8-11-8-19 0-4-3-6-6-6-4 0-6 3-6 6-3 11 2 21 10 29z m-6-35c4 0 6 3 6 6 0 7 3 14 8 19 5 6 11 9 19 9l51 0c7 0 14-3 19-9 5-5 8-11 8-19 0-4 3-6 6-6 3 0 7 3 7 6 0 11-5 21-13 29-7 7-17 12-28 12l-51 0c-11 0-21-4-28-12-7-8-13-18-13-29 2-3 6-6 9-6z m9 32c6 6 15 10 24 10l51 0c9 0 18-4 24-10 6-8 10-16 10-25 0-2-3-2-3 0 0 8-3 16-9 22-6 7-14 10-22 10l-51 0c-8 0-16-3-22-10-6-6-9-14-9-22 0-2-3-2-3 0 0 9 4 17 10 25z m215-55c-3 3-8 5-13 5l-304 0c-5 0-9-2-13-5-3-3-5-8-5-13l0-16c0-1 1-2 1-2l337 0c1 0 2 1 2 1l0 16c0 6-2 11-5 14z m2-28l-334 0 0 15c0 4 2 8 4 11 3 3 7 4 11 4l304 0c4 0 7-1 10-4 3-3 4-7 4-11l0-15z m-8 22c-2 2-4 3-7 3l-304 0c-3 0-5-1-7-3-2-2-3-4-3-7l0-10 324 0 0 10c0 3-1 6-3 7z m-2-12l-314 0 0 5c0 1 1 3 2 4 1 1 2 1 4 1l304 0c1 0 3-1 4-2 1-1 1-2 1-4l0-4z m15 25c-5 6-12 9-20 9l-304 0c-7 0-14-3-20-9-5-5-8-12-8-20l0-16c0-7 5-12 11-12l337 0c6 0 11 5 11 12l0 16c1 8-2 15-7 20z m3-36c0-5-3-7-6-7l-337 0c-4 0-6 3-6 7l0 16c0 6 3 12 7 16 4 4 10 8 16 8l304 0c6 0 12-4 16-8 4-4 7-10 7-16l0-16z m-7 32c-4 4-10 8-16 8l-304 0c-6 0-12-4-16-8-4-4-7-10-7-16l0-16c0-5 3-7 6-7l337 0c4 0 6 3 6 7l0 16c1 7-2 12-6 16z m2-32c0-1-1-1-2-1l-336 0c-1 0-1 1-1 2l0 16c0 5 2 9 5 13 3 3 8 5 13 5l304 0c5 0 9-2 13-5 3-3 5-8 5-13l0-17z m-8 27c-3 3-6 4-10 4l-304 0c-4 0-8-2-11-4-3-3-4-7-4-11l0-15 334 0 0 15c0 4-2 8-5 11z m0-21l-324 0 0 10c0 3 1 5 3 7 2 2 4 3 7 3l304 0c3 0 5-1 7-3 2-2 3-4 3-7z"/>
<glyph glyph-name="tray-share-team" unicode="&#78;" d="M440 338c0 10-9 17-19 17-10-1-18-9-18-19l13-188-329 288c-8 7-19 6-27-2-7-8-6-19 2-25l330-288-187-12c-10-1-18-10-18-20 1-10 10-18 20-17l231 15c11 0 18 9 18 19z"/>
<glyph glyph-name="cancel" unicode="&#79;" d="M494 62l-199 200 187 188c12 11 12 28 0 38-11 12-28 12-39 0l-187-187-187 187c-11 12-28 12-39 0-12-11-12-28 0-38l187-188-199-200c-11-11-11-28 0-38 6-6 13-9 20-9 7 0 14 3 19 9l199 198 199-198c5-6 12-9 19-9 7 0 14 3 20 9 11 11 11 28 0 38z"/>
<glyph glyph-name="message" unicode="&#80;" d="M486 402c0 1 0 2-1 4 0 1-1 1-2 2-1 0-1 1-2 1 0 0-1 0-1 0-1 0-1 0-2 0 0 0-1 0-1 0 0 0 0 0-1 0l-444-92c-3-1-5-3-6-6-1-3 1-6 4-8l128-67 22-124c0-1 0-1 0-2 0 0 0-1 0-1 0-1 0-1 1-3 0 0 1-1 1-1 0 0 1-1 1-1 0 0 0 0 1 0 1 0 1 0 2 0 2 0 4 1 5 2l85 57 90-58c1-1 3-1 4-1 1 0 2 0 2 0 2 1 4 2 5 6l108 289c0 0 0 1 0 1 0 0 0 0 0 1 1 0 1 1 1 1z m-430-96l369 76-260-133z m133-163l-16 93 224 114-184-135c0 0-1 0-1-1 0 0 0 0 0-1 0 0 0 0 0-1 0 0-1-1-1-1z m43 7l-30-21 20 69 33-22 9-6z m136-28l-118 77-18 11 232 170z"/>
<glyph glyph-name="sort-by" unicode="&#81;" d="M432 388l-105 105c-6 6-16 6-22 0l-105-105c-6-6-6-15 0-21 6-7 15-7 21 0l80 77 0-234c0-8 7-15 15-15 9 0 16 7 16 15l0 235 80-77c6-7 15-7 21 0 5 5 5 15-1 20z m-141-244l-80-77 0 234c0 8-7 15-15 15-9 0-16-7-16-15l0-234-80 77c-6 7-15 7-21 0-6-6-6-15 0-21l105-104c6-6 16-6 22 0l105 104c6 6 6 15 0 21-5 7-14 7-20 0z"/>
<glyph glyph-name="error" unicode="&#82;" d="M256 507c-138 0-251-113-251-251 0-138 113-251 251-251 138 0 251 113 251 251 0 138-113 251-251 251z m0-473c-122 0-222 100-222 222 0 122 100 222 222 222 122 0 222-100 222-222 0-122-100-222-222-222z m0 379c-8 0-14-6-14-15l0-208c0-8 6-14 14-14 8 0 14 6 14 14l0 207c0 9-6 16-14 16z m0-256c-8 0-14-6-14-15l0-18c0-8 6-14 14-14 8 0 14 6 14 14l0 18c0 9-6 15-14 15z"/>
<glyph glyph-name="message-1" unicode="&#83;" d="M456 426l-400 0c-21 0-40-17-40-40l0-261c0-22 18-40 40-40l399 0c21 0 40 17 40 40l0 262c0 22-18 39-39 39z m-400-17l399 0c3 0 6-1 8-2l-190-166c-9-9-25-9-34 0l-191 166c3 1 5 2 8 2z m421-284c0-12-10-22-21-22l-400 0c-12 0-21 11-21 22l0 262c0 2 0 4 1 6l153-134-87-81c-2-2-3-4-3-6 0-2 1-5 2-6 2-2 4-3 7-3 2 0 4 1 6 2l88 83 24-22c8-7 19-10 29-10 11 0 21 4 29 10l24 21 88-83c2-2 4-2 6-2 2 0 6 1 7 3 2 2 2 4 2 6 0 2-1 4-3 6l-87 81 153 134c1-2 1-4 1-6l0-261z"/>
<glyph glyph-name="settings" unicode="&#84;" d="M472 312l-45 0c-6 0-11 3-13 10-2 6-1 11 3 16l32 32c5 5 8 12 8 19 0 7-3 14-8 20l-41 41c-11 10-29 10-39 0l-32-32c-4-4-10-5-16-3-7 2-10 7-10 13l0 44c0 15-12 28-27 28l-58 0c-15 0-27-13-27-28l0-45c0-6-3-11-10-13-6-2-11-1-16 3l-30 32c-10 10-28 10-39 0l-41-41c-5-6-8-13-8-20 0-7 3-14 8-19l32-32c4-4 5-10 3-16-2-7-7-10-13-10l-45 0c-15 0-28-12-28-27l0-58c0-15 13-27 28-27l45 0c6 0 11-3 13-10 2-6 1-11-3-16l-32-30c-5-5-8-12-8-19 0-7 3-14 8-20l41-41c6-5 13-8 20-8 7 0 14 3 19 8l32 32c4 4 10 5 16 3 7-2 10-7 10-13l0-45c0-15 12-28 27-28l58 0c15 0 27 13 27 28l0 45c0 6 3 11 10 13 6 2 11 1 16-3l32-32c10-10 28-10 39 0l41 41c5 6 8 13 8 20 0 7-3 14-8 19l-32 32c-4 4-5 10-3 16 2 7 7 10 13 10l45 0c15 0 28 12 28 27l0 58c-2 14-15 26-30 26z m4-85c0-2-2-4-4-4l-45 0c-15 0-29-9-35-23-6-15-3-30 8-41l32-32c1-1 1-2 1-3 0-1 0-2-1-3l-41-41c-1-1-2-1-3-1-1 0-2 0-3 1l-32 32c-11 11-26 14-41 8-14-6-23-20-23-35l0-45c0-2-2-4-4-4l-58 0c-2 0-4 2-4 4l0 45c0 15-9 29-23 35-5 2-10 3-15 3-10 0-19-4-26-11l-32-32c-1-1-2-1-3-1-1 0-2 0-3 1l-41 41c-1 1-1 2-1 3 0 1 0 2 1 3l32 32c11 11 14 26 8 41-6 14-20 23-35 23l-45 0c-2 0-4 2-4 4l0 58c0 2 2 4 4 4l45 0c15 0 29 9 35 23 6 15 3 30-8 41l-32 32c-1 1-1 2-1 3 0 1 0 2 1 3l41 41c1 1 2 1 3 1 1 0 2 0 3-1l32-32c11-11 26-14 41-8 14 6 23 20 23 35l0 45c0 2 2 4 4 4l58 0c2 0 4-2 4-4l0-45c0-15 9-29 23-35 15-6 30-3 41 8l32 32c1 1 2 1 3 1 1 0 2 0 3-1l41-41c1-1 1-2 1-3 0-1 0-2-1-3l-32-32c-11-11-14-26-8-41 6-14 20-23 35-23l45 0c1 0 2 0 3-1 1-1 1-2 1-3z m-220 112c-46 0-83-37-83-83 0-46 37-83 83-83 46 0 83 37 83 83 0 46-37 83-83 83z m0-142c-33 0-59 26-59 59 0 33 26 59 59 59 33 0 59-26 59-59 0-33-26-59-59-59z"/>
<glyph glyph-name="task" unicode="&#85;" d="M378 499l-244 0-5-25-68 0 0-462 390 0 0 462-68 0z m-227-21l210 0 12-49-233 0z m279-24l0-420-348 0 0 420 42 0-10-45 283 0-10 45z m-126-175l-62-62-23 23c-5 5-13 5-19 0-5-6-5-14 0-20l32-33c4-3 7-4 10-4 3 0 7 1 9 4l72 72c5 5 5 13 0 20-6 6-13 5-19 0z"/>
<glyph glyph-name="advertising" unicode="&#86;" d="M489 502c-4 0-7 0-11-1-10-1-21-1-33-3-43-6-84-22-120-47-24-17-44-37-63-57-15 6-32 10-50 14-24 4-48 3-75-1-19-4-38-10-56-18-25-11-47-27-66-46-6-6-4-11-2-14 3-5 9-6 15-4 23 9 46 13 69 12 23-1 45-6 65-15 12-7 23-14 35-22l-1-1c-2-4-3-7-6-11 0-1-1-1-2-2-9-2-19-4-28-6l-10-2c-4-2-9-3-11-9-2-6 2-11 4-13 14-13 27-27 39-39l75-75c2-2 6-6 12-4 6 2 9 7 9 12 1 3 1 6 2 10 2 7 3 15 4 23 1 6 3 8 8 11l2 1c3 1 5 2 6 2 1 0 3-3 5-7 18-23 28-49 31-76 3-24 2-45-4-66-1-4-3-8-4-13-1-3-2-5-3-8-1-4-1-8 0-10 1-2 4-4 7-5 1 0 2 0 3 0 5 0 8 3 10 6 14 16 27 31 36 49 13 23 21 48 27 73 3 22 4 41 3 60-2 23-8 44-15 61-1 2-1 3 1 5l9 8c10 11 20 21 29 32 43 51 66 114 67 183 0 5-1 8-3 10-2 2-5 3-10 3z m-400-143c-7 0-13 0-20-1 17 12 36 20 58 25 41 9 80 8 119-5-16-18-28-37-40-57-35 24-75 38-117 38z m170-187l-88 88c2 0 4 1 6 1l3 1c4 1 8 2 14 2 23-23 46-46 69-69-1-9-2-16-4-23z m129-6c-3-44-17-77-30-96 2 22 1 44-4 64-6 27-17 50-35 73 21 11 39 24 58 40 9-28 12-54 11-81z m91 311c0-5-1-10-1-16-4-38-15-74-35-107-11-19-25-38-42-55-24-26-46-44-67-58-19-13-37-23-55-31-23 22-46 45-68 68 17 38 41 73 71 104 16 17 35 36 56 50 33 23 70 37 107 43 9 1 16 2 24 3l9 1c0 0 1 0 1 0z m-393-408c3 0 5 1 8 1 5 1 11 1 17 2 35 6 67 22 93 48 2 2 3 5 4 7 0 3 0 6-2 8-2 2-4 4-10 4-11 0-20 3-27 7-19 13-29 28-30 50 0 4-3 8-6 10-4 3-9 2-14-2-32-33-49-73-51-119 0-5 0-9 3-13 3-3 7-4 12-4 2 1 2 1 3 1z m36 103c8-25 25-42 51-51-6-5-13-9-20-13-19-11-39-16-61-18 1 32 12 58 30 82z"/>
<glyph glyph-name="graph" unicode="&#87;" d="M500 55l-488 0c-7 0-12-5-12-12 0-7 5-12 12-12l488 0c7 0 12 5 12 12 0 7-5 12-12 12z m-371 299l-85 0c-7 0-12-5-12-12l0-231c0-8 5-13 12-13l425 0c7 0 12 5 12 13l0 301c0 7-5 12-12 12l-85 0c-7 0-12-5-12-12l0-82-61 0 0 139c0 7-5 12-12 12l-85 0c-7 0-12-5-12-12l0-229-61 0 0 102c-1 7-6 12-12 12z m-12-231l-62 0 0 208 61 0 0-208z m278 194l0 82 61 0 0-276-61 0z m-85-12l61 0 0-182-61 0z m-85 152l62 0 0-334-62 0z m-85-241l61 0 0-92-61 0z"/>
<glyph glyph-name="gantt-chart" unicode="&#88;" d="M497 57l0-26-482 0 0 450 27 0 0-424z m-409 276l194 0 0-31-194 0z m81-90l284 0 0-31-284 0z m197-90l87 0 0-31-87 0z"/>
<glyph glyph-name="chat" unicode="&#89;" d="M423 440c-46 37-108 57-172 57-65 0-126-20-172-57-48-38-74-89-74-143 0-48 22-95 61-131 32-31 76-52 124-63 0-22-9-44-25-60-6-6-8-16-5-25 3-8 12-14 21-14 61 0 113 41 127 98 49 10 94 32 128 64 39 36 61 83 61 131 0 55-27 105-74 143z m-137-295c-12-2-21-12-20-23-4-24-17-44-36-57 7 18 8 37 6 57 0 11-9 21-20 23-96 14-165 77-165 152 0 85 90 155 200 155 109 0 200-70 200-155 0-75-69-138-165-152z m-111 190c-20 0-38-18-38-38 0-21 18-38 38-38 21 0 38 17 38 38 0 20-17 38-38 38z m0-44c-4 0-7 3-7 7 0 4 3 7 7 7 4 0 7-3 7-7 0-4-4-7-7-7z m152 44c-21 0-38-18-38-38 0-21 17-38 38-38 20 0 38 17 38 38 0 20-17 38-38 38z m0-44c-4 0-8 3-8 7 0 4 4 7 8 7 4 0 7-3 7-7 0-4-3-7-7-7z m-76 44c-21 0-38-18-38-38 0-21 17-38 38-38 20 0 38 17 38 38 0 20-18 38-38 38z m0-44c-4 0-7 3-7 7 0 4 3 7 7 7 4 0 7-3 7-7 0-4-3-7-7-7z"/>
<glyph glyph-name="audience" unicode="&#90;" d="M394 268c26 0 47 22 47 47 0 26-21 47-47 47-25 0-47-21-47-47-1-25 21-47 47-47z m0 75c16 0 28-12 28-28 0-15-12-27-28-27-15 0-27 12-27 27 0 16 12 28 27 28z m-185-158c-5 0-10-4-10-10l0-47c0-5 4-10 10-10 6 0 10 4 10 10l0 47c0 6-5 10-10 10z m47 119c31 0 55 25 55 55 0 31-24 56-55 56-31 0-55-25-55-56 0-30 24-55 55-55z m0 91c20 0 37-16 37-37 0-20-17-36-37-36-20 0-37 16-37 36 0 21 17 37 37 37z m-132-128c24 0 45 21 45 45 0 25-21 45-45 45-25 0-45-20-45-45 0-24 20-45 45-45z m0 73c14 0 27-12 27-27 0-14-13-26-27-26-14 0-27 12-27 26 0 15 13 27 27 27z m358-223l-26 0 0 68c0 37-31 68-68 68-20 0-39-9-51-25-9 36-42 62-81 62-38 0-71-26-81-62-12 15-31 25-51 25-37 0-68-31-68-68l0-68-26 0c-5 0-10-4-10-9 0-6 5-10 10-10l452 0c5 0 10 4 10 10 0 4-5 9-10 9z m-309 0l-98 0 0 68c0 27 21 49 49 49 27 0 49-21 49-49z m148 0l-130 0 0 90c0 36 29 64 65 64 36 0 65-28 65-64z m116 0l-97 0 0 71c1 26 22 46 49 46 27 0 49-21 49-49l0-68z m-226 101c-5 0-9-4-9-9l0-2c0-5 4-9 9-9 5 0 9 4 9 9l0 2c0 5-4 9-9 9z"/>
<glyph glyph-name="pin" unicode="&#48;" d="M487 302c-1 3-3 6-6 7-73 30-140 6-159-2l-128 109c4 40-18 67-19 68-2 2-4 3-7 4-3 0-6-1-7-3l-133-133c-2-2-3-5-3-7 0-3 1-5 4-7 23-20 54-20 67-19l110-129c-8-20-30-90-2-159 1-3 4-5 7-6 1 0 1 0 2 0 3 0 5 1 7 3l126 126 117-117c4-4 10-4 14 0 4 4 4 10 0 14l-118 116 126 126c2 2 3 5 2 9z m-271-250c-19 69 9 135 9 135 2 3 1 8-1 11l-116 138c-3 2-6 3-8 3 0 0-1 0-2 0 0 0-25-4-48 7l115 116c5-9 11-27 7-48-1-3 1-7 3-10l137-116c3-3 7-3 12-1 1 0 62 31 135 9z"/>
<glyph glyph-name="delivery" unicode="&#49;" d="M477 360l-297 0c-5 0-9-4-9-9l-3-17-87 0c-5 0-9-4-9-9 0-6 4-10 9-10l87 0-14-118-52 0c-5 0-9-4-9-10 0-5 4-9 9-9l53 0-3-17c0-5 4-9 9-9l297 0c5 0 9 4 9 9l19 190c0 5-4 9-9 9z m-22-18l-127-103-124 103z m-6-172l-279 0 19 160 133-110c2-1 4-2 6-2 2 0 4 1 6 2l134 110z m-307 87c0 5-4 9-9 9l-98 0c-5 0-9-4-9-9 0-5 4-9 9-9l98 0c5 0 9 4 9 9z m-73-60l-4 0c-6 0-10-4-10-10 0-5 4-9 10-9l5 0c5 0 9 4 9 9-1 6-5 10-10 10z"/>
<glyph glyph-name="iconss-60" unicode="&#50;" d="M439 397c-38 49-92 81-153 88-61 9-121-8-169-45l-18 18c-5 5-9 3-10-4l-6-64c-1-6 4-11 11-10l64 6c7 1 9 5 4 10l-19 18c40 28 89 41 139 35 51-8 97-33 129-74 31-41 45-92 39-144-6-36-20-70-42-98-10-11-21-21-32-31-41-31-92-45-144-39-51 8-97 33-129 74-30 40-45 90-38 141 1 10-7 19-17 20-10 1-19-6-20-16-8-60 10-119 46-167 38-49 92-81 153-88 62-9 122 8 171 46 15 11 27 23 38 37 28 32 45 72 50 116 8 62-9 122-47 171z m-192 10c-8 0-16-8-16-16l0-150 138-71c2-1 4-2 7-2 5 0 10 3 13 8 4 7 1 17-6 21l-121 62 0 132c0 8-7 16-15 16z"/>
<glyph glyph-name="audio-1" unicode="&#51;" d="M476 495c-2 2-4 2-7 2l-271-35c-4-1-8-4-8-8l0-312c-16 20-40 32-69 32-48 0-87-35-87-79 0-44 39-79 87-79 48 0 87 35 87 79 0 2 0 4 0 6 0 1 0 1 0 2l0 252 254 33 0-160c-17 20-41 32-70 32-48 0-87-35-87-79 0-44 39-79 87-79 48 0 87 35 87 78l0 307c0 3-1 6-3 8z m-355-462c-39 0-70 27-70 61 0 34 32 62 70 62 38 0 69-28 69-62 0-34-31-61-69-61z m270 88c-39 0-69 27-69 61 0 34 31 62 69 62 38 0 70-28 70-62 0-34-31-61-70-61z m71 314l0-28-254-33 0 71 254 33z"/>
<glyph glyph-name="engage" unicode="&#52;" d="M461 461c-42 41-110 41-152 0l-82-82c-3-3-3-9 0-12 3-3 10-3 13 0l82 82c16 16 38 25 62 25 24 0 46-9 62-25 17-17 26-39 26-63 0-24-9-46-26-62l-105-109c-35-35-91-35-126 0-3 3-9 3-12 0-3-3-3-9 0-12 20-21 48-31 76-31 27 0 54 10 75 31l107 106c20 21 31 47 31 76 0 29-12 55-31 76z m-202-328l-70-70c-16-16-38-25-62-25-24 0-46 9-62 25-35 35-35 92 0 126l100 101c35 35 91 35 126 0 3-3 9-3 12 0 3 3 3 9 0 12-42 42-109 42-150 0l-102-99c-20-21-31-47-31-76 0-29 12-55 31-76 20-20 47-31 76-31 29 0 55 12 76 31l69 70c3 3 3 9 0 12-4 4-10 4-13 0z m64-33c-6 0-10-4-10-9l0-53c0-5 4-9 10-9 5 0 9 4 9 9l0 53c0 5-4 9-9 9z m39 16c-3 3-9 3-12 0-3-3-3-10 0-13l38-37c2-3 4-4 6-4 2 0 4 1 6 4 3 3 3 9 0 12z m58 38l-53 0c-6 0-10-4-10-10 0-5 4-9 10-9l53 0c5 0 9 4 9 9 0 6-4 10-9 10z m-257 239c5 0 9 4 9 9l0 54c0 5-4 9-9 9-5 0-9-4-9-9l0-54c0-5 4-9 9-9z m-40-14c2-2 4-3 6-3 2 0 4 1 6 3 3 3 3 9 0 12l-38 38c-3 3-9 3-12 0-3-4-3-9 0-13z m-58-39l53 0c5 0 9 4 9 9 0 5-4 9-9 9l-53 0c-6 0-10-4-10-9 0-5 4-9 10-9z"/>
<glyph glyph-name="more-options-2" unicode="&#53;" d="M256 15c133 0 241 108 241 241 0 133-108 241-241 241-133 0-241-108-241-241 0-133 108-241 241-241z m0 446c113 0 205-92 205-205 0-113-92-205-205-205-113 0-205 92-205 205 0 113 92 205 205 205z m-56-204c0-15-13-28-28-28-15 0-28 13-28 28 0 15 13 28 28 28 15 0 28-13 28-28z m88-1c0-15-13-28-28-28-15 0-28 13-28 28 0 15 13 28 28 28 15 0 28-13 28-28z m87 0c0-15-13-28-28-28-15 0-28 13-28 28 0 15 13 28 28 28 15 0 28-13 28-28z"/>
<glyph glyph-name="iconss-64" unicode="&#54;" d="M185 264c-17 21-42 31-66 31-25 0-49-11-67-31-36-41-36-107 0-148l67-76 66 76c37 41 37 107 0 148z m-11-138l-55-63-56 63c-30 35-30 92 0 128 15 16 35 26 56 26 20 0 40-10 55-26 31-36 31-93 0-128z m229 173l52 57c27 31 27 81 0 112-15 15-33 24-52 24-19 0-36-9-51-24-27-31-27-81 0-112z m-38 159c10 12 24 18 38 18 15 0 29-6 39-18 23-25 23-66 0-91l-39-44-38 44c-23 25-23 65 0 91z m68-395c-4 2-8-2-9-6-1-4-3-8-5-11-3-3-2-8 1-11 1-1 3-2 5-2 2 0 5 1 6 3 4 5 7 11 8 17 1 5-2 9-6 10z m-162 185c-3 0-7 1-10 2-4 1-8 0-10-4-2-4 0-8 4-10 5-3 10-4 15-4l3 0c5 0 9 4 9 9 0 4-3 8-9 8l-2 0z m-18 50c1 0 3 0 4 1 3 2 7 3 11 4 4 0 7 4 7 8 0 4-4 7-8 7-6-1-12-3-18-6-4-2-5-7-2-11 1-2 4-3 6-3z m-91-262l-16 0c-4 0-8-3-8-8 0-4 3-9 8-9l16 0c4 0 8 4 8 9 0 5-3 8-8 8z m141 141c-1 0-1 0-2 0-4 0-8-4-7-8 0-4 4-7 8-7l15 0c5 0 9 3 9 8 0 4-3 8-9 8l-14 0z m-4 126l15 0c4 0 9 3 9 8 0 5-4 8-9 8l-15 0c-4 0-8-3-8-8 0-5 4-8 8-8z m96-126c-4 0-8-3-8-8 0-4 3-8 8-8l16 0c4 0 8 3 8 8 0 4-3 8-8 8z m29 64c0 4-3 8-8 8l-16 0c-4 0-8-3-8-8 0-4 3-9 8-9l16 0c4 0 8 4 8 9z m-76-79l16 0c4 0 8 3 8 8 0 4-3 8-8 8l-16 0c-4 0-8-3-8-8 1-5 4-8 8-8z m13 141c5 0 9 3 9 8 0 5-3 8-9 8l-15 0c-4 0-8-3-8-8 0-5 3-8 8-8z m-55-55c-4 0-8-3-8-8 0-4 3-9 8-9l16 0c4 0 8 3 8 9 0 4-3 8-8 8z m71-7c0 4-3 8-8 8l-16 0c-4 0-8-3-8-8 0-4 3-9 8-9l16 0c4 0 8 4 8 9z m110-29c-1 4-5 7-9 6-4-1-7-5-6-9 0-1 0-3 0-4 0-3 0-5-1-8-1-4 1-9 5-11 1 0 1 0 2 0 3 0 6 2 7 7 1 4 2 8 2 12 0 2 0 5 0 7z m-137-176l-15 0c-4 0-8-3-8-8 0-4 3-9 8-9l15 0c4 0 8 4 8 9 0 5-3 8-8 8z m-47 0l-15 0c-4 0-8-3-8-8 0-4 3-9 8-9l15 0c4 0 8 4 8 9 0 5-3 8-8 8z m87 63c0 4-3 9-8 9l-15 0c-5 0-9-4-9-9 0-4 3-8 9-8l15 0c4 0 8 3 8 8z m-47 0c0 4-3 9-8 9l-16 0c-4 0-8-4-8-9 0-4 3-8 8-8l16 0c4 0 8 3 8 8z m54-63l-15 0c-4 0-8-3-8-8 0-4 3-9 8-9l15 0 0 9 0-8c4 0 7 4 7 9 2 4-3 7-7 7z m28 42c2 0 3 1 5 2 3 3 4 7 1 11-4 5-9 9-14 12-4 2-8 0-10-3-3-4 0-8 3-10 4-2 7-4 9-7 2-4 4-5 6-5z m30 101c-3-1-8-2-11-2l-2 0c-4 0-8-3-8-8 0-4 3-8 8-8l2 0c7 0 12 1 17 3 4 2 6 6 4 10-1 5-6 7-10 5z m-214 78c4 1 6 6 5 10-1 3-1 6-1 8 0 1 0 3 0 4 1 4-2 8-7 9-5 0-9-2-10-7 0-2 0-3 0-6 0-5 1-9 2-13 1-3 4-5 8-5 1 0 2 0 3 0z m-32-221l-15 0c-5 0-9-3-9-8 0-4 3-9 9-9l15 0c4 0 8 4 8 9 0 5-3 8-8 8z m80 58c3 0 6 2 7 4 2 4 0 8-4 11-4 2-7 4-9 7-3 3-9 4-12 1-3-3-4-8-1-12 4-5 10-9 16-11 0 0 2 0 3 0z m177 149c-5 3-11 5-19 6-4 0-8-3-8-7 0-4 3-9 7-9 5 0 9-1 12-4 1-1 3-1 4-1 3 0 5 1 7 4 2 4 1 9-3 11z m-210-207l-15 0c-4 0-9-3-9-8 0-4 4-9 9-9l15 0c4 0 8 4 8 9 0 5-3 8-8 8z m20 103c2 4 3 8 6 12 3 3 2 8-2 11-4 2-9 2-12-2-4-5-6-12-7-18-1-4 2-8 6-9 0 0 1 0 1 0 4 0 7 3 8 6z m130 235c23 0 43 19 43 43 0 23-20 43-43 43-24 0-45-20-45-43 0-24 20-43 45-43z m0 70c15 0 27-12 27-27 0-16-13-28-27-28-15 0-28 12-28 28 0 15 12 27 28 27z m-287-196c-27 0-47-21-47-47 0-27 20-47 47-47 26 0 47 21 47 47 0 25-22 47-47 47z m0-78c-18 0-32 14-32 32 0 17 14 31 32 31 17 0 32-14 32-31 0-18-15-32-32-32z"/>
<glyph glyph-name="iconss-67" unicode="&#55;" d="M119 303l196 0c4 0 9 3 9 8 0 5-3 8-9 8l-196 0c-4 0-8-3-8-8 0-5 4-8 8-8z m0 63l79 0c4 0 8 3 8 8 0 5-3 8-8 8l-79 0c-4 0-8-3-8-8 0-5 4-8 8-8z m0-125l196 0c4 0 9 3 9 8 0 5-5 7-9 7l-196 0c-4 0-8-3-8-8 0-5 4-7 8-7z m133-47l-133 0c-4 0-8-4-8-9 0-4 3-8 8-8l133 0c4 0 8 3 8 8 0 4-4 9-8 9z m-24-64l-109 0c-4 0-8-3-8-8 0-5 3-8 8-8l109 0c4 0 9 3 9 8 0 5-5 8-9 8z m173 92l0 155-114 115-254 0 0-472 345 0c56 0 102 47 102 103-1 48-34 88-79 99z m-109 243l83-83-83 0z m32-429l-276 0 0 440 227 0 0-109 110 0 0-142c-3 0-5 0-8 0-56 0-103-46-103-102 0-3 0-6 0-9 0-1 0-1 0-2 0-3 1-7 1-10 0 0 0-1 0-1 1-3 1-5 3-8 0-1 0-1 1-2 1-3 2-5 3-8 0 0 0-1 1-1 1-2 2-4 3-7 0-1 1-1 1-2 1-2 3-5 4-7 0-1 1-1 1-3 1-2 3-4 4-6 0 0 1-1 1-1 2-2 4-4 6-6 0 0 1-1 1-1 2-2 4-4 6-5 0 0 0 0 1 0 2-2 4-3 7-5 1 0 1-1 3-1 2-1 2-1 3-2z m54 0c-47 0-86 39-86 86 0 47 39 86 86 86 2 0 5 0 7 0 2 0 5-1 7-1l3-1c39-8 69-43 69-84 0-47-39-86-86-86z m47 94l-39 0 0 39c0 4-3 8-8 8-4 0-8-3-8-8l0-39-39 0c-4 0-8-3-8-8 0-5 3-8 8-8l39 0 0-39c0-4 3-8 8-8 4 0 8 3 8 8l0 39 39 0c4 0 8 3 8 8 0 5-4 8-8 8z"/>
<glyph glyph-name="video" unicode="&#56;" d="M316 263l-88 56c-2 3-5 3-8 0-2-1-4-4-4-7l0-112c0-3 2-5 4-7 1-2 2-2 4-2 1 0 3 0 4 2l88 56c2 1 5 4 5 7 0 3-3 5-5 7z m-84-49l0 83 65-41z m248 226l-448 0c-4 0-8-3-8-8l0-352c0-4 4-8 8-8l448 0c4 0 8 3 8 8l0 352c0 5-4 8-8 8z m-377-176l-63 0 0 72 64 0 0-72z m-63-16l64 0 0-72-64 0z m80-80l0 256 272 0 0-336-272 0z m352 96l-64 0 0 72 64 0z m-63-16l64 0 0-72-64 0z m63 176l0-72-64 0 0 72z m-432 0l64 0 0-72-64 0z m0-336l0 72 64 0 0-72z m432 0l-64 0 0 72 64 0z"/>
<glyph glyph-name="audio" unicode="&#57;" d="M302 472c-9 5-20 5-31 0-1-1-1-1-2-1l-129-121c-1-1-3-1-5-1l-82 0c-16 0-30-13-30-31l0-124c0-17 13-31 30-31l82 0c2 0 3 0 5-1l129-121c1 0 1-1 2-1 5-3 11-4 16-4 5 0 10 1 15 4 9 5 15 15 15 27l0 378c0 12-6 22-15 27z m-5-405c0-7-4-9-5-10-2-1-5-3-10 0l-129 120c-1 0-1 1-2 1-6 3-11 4-16 4l-82 0c-6 0-11 5-11 12l0 124c0 7 5 12 11 12l82 0c5 0 10 1 16 4 1 0 1 1 2 1l129 121c4 2 8 1 10 0 2-1 5-4 5-11z m91 309c-4 4-10 4-14 0-4-4-4-10 0-15 61-61 61-160 0-221-4-4-4-10 0-14 2-2 4-3 7-3 3 0 5 1 7 3 69 69 69 181 0 250z m-35-30c-4 4-10 4-14 0-4-4-4-10 0-14 42-42 42-111 0-153-4-4-4-10 0-14 2-2 4-3 7-3 3 0 5 1 7 3 50 51 50 131 0 181z m64 78c-4 4-10 4-15 0-4-4-4-10 0-14 43-43 67-100 67-160 0-61-24-116-67-158-4-4-4-10 0-14 2-2 5-3 8-3 2 0 5 1 7 3 46 46 71 107 71 173 0 65-25 127-71 173z"/>
<glyph glyph-name="iconss-68" unicode="&#33;" d="M490 160c-1 3-3 5-6 5l-61 8-28 54c-3 5-11 5-14 0l-29-53-61-8c-3 0-5-2-6-5-1-3 0-6 2-8l45-42-10-60c-1-3 1-6 3-8 2-2 6-2 8-1l55 28 55-28c1-1 2-1 4-1 3 0 4 1 6 2 2 2 4 5 3 8l-11 60 45 42c0 1 2 4 0 7z m-60-42c-2-2-3-4-2-7l8-49-45 23c-1 1-2 1-4 1-2 0-2 0-4-1l-45-23 8 49c0 3 0 5-2 7l-36 34 49 7c3 0 5 2 7 4l22 44 23-44c1-2 3-4 6-4l49-7z m-237 244c0 25-20 45-45 45-24 0-44-20-44-45 0-24 20-44 44-44 25 0 45 21 45 44z m-73 0c0 16 12 29 28 29 16 0 29-12 29-29 0-15-12-28-29-28-16 0-28 13-28 28z m310-104c3-3 8-3 11 0 3 3 3 8 0 11l-95 88c-2 1-4 2-6 2-2 0-4-1-5-3l-79-85-38 38c-3 3-8 3-11 0l-135-119c-3-3-4-8-1-11 2-2 4-3 6-3 2 0 4 1 5 2l130 115 82-82c3-3 8-3 11 0 3 3 3 8 0 11l-38 38 73 80z m-170-137l-223 0 0 334 430 0 0-258c0-4 3-9 8-9 5 0 8 3 8 9l0 266c0 4-3 8-8 8l-446 0c-4 0-7-3-7-8l0-350c0-4 3-9 8-9l231 0c4 0 8 4 8 9-1 4-5 8-9 8z"/>
<glyph glyph-name="pdf" unicode="&#34;" d="M478 366l-121 127c-2 2-4 3-6 3l-182 0c-21 0-37-17-37-37l0-129-74 0c-15 0-27-13-27-28l0-138c0-16 12-28 27-28l74 0 0-83c0-20 16-37 37-37l275 0c21 0 37 17 37 37l0 306c0 2-1 5-3 7z m-126 104l101-103-101 0z m-294-315c-5 0-9 4-9 9l0 138c0 5 4 9 9 9l248 0c5 0 9-4 9-9l0-138c0-5-4-9-9-9z m405-102c0-10-8-18-19-18l-275 0c-10 0-18 8-18 18l0 83 156 0c16 0 28 12 28 28l0 138c0 15-12 28-28 28l-156 0 0 128c0 10 8 18 18 18l166 0 0-120c0-5 4-9 9-9l120 0z m-241 196c-2 5-4 9-7 12-3 3-7 6-12 7-3 1-8 1-16 1l-28 0 0-79 29 0c7 0 11 1 15 3 5 1 8 4 11 6 4 3 6 8 8 14 2 5 2 10 2 16 0 9-1 15-2 20z m-15-32c-1-3-2-6-4-7-2-2-4-3-6-3-2 0-6-1-10-1l-13 0 0 52 7 0c6 0 12 0 14-1 3-1 5-2 7-4 2-2 3-4 4-7 1-3 2-8 2-15 0-6 0-11-1-14z m85 40l0 13-53 0 0-79 15 0 0 34 33 0 0 14-33 0 0 18z"/>
<glyph glyph-name="rich-text" unicode="&#35;" d="M394 452l-366 0c-4 0-8-3-8-8l0-110c0-4 4-7 8-7l29 0c4 0 8 3 8 7l0 22 89 0 0-110c0-4 3-7 7-7 4 0 7 3 7 7l0 118c0 4-3 7-7 7l-103 0c-4 0-7-3-7-7l0-23-15 0 0 95 351 0 0-95-15 0 0 23c0 4-3 7-7 7l-103 0c-4 0-7-3-7-7l0-266c0-4 3-7 7-7l52 0 0-15-205 0 0 15 52 0c4 0 7 3 7 7l0 118c0 4-3 7-7 7-4 0-7-3-7-7l0-111-54 0c-4 0-7-3-7-7l0-29c0-4 3-8 7-8l221 0c4 0 7 4 7 8l0 29c0 4-3 7-7 7l-53 0 0 251 88 0 0-22c0-4 3-7 8-7l29 0c4 0 7 3 7 7l0 110c1 5-2 8-6 8z m90-376l-22 0 0 360 22 0c4 0 8 3 8 7 0 4-4 8-8 8l-60 0c-4 0-7-4-7-8 0-4 3-7 7-7l22 0 0-360-22 0c-4 0-7-3-7-7 0-4 3-8 7-8l60 0c4 0 8 4 8 8 0 4-4 7-8 7z"/>
<glyph glyph-name="iconss-71" unicode="&#36;" d="M492 303c0 6-3 11-7 15-4 5-9 7-15 7l-428-1c-6 0-11-2-15-7-4-4-7-9-7-15l0-242c0-11 10-21 22-21l428 1c6 0 11 2 15 6 4 4 7 9 7 15z m-46 0l-190-133-191 132z m-110-155l114-88-388 0 115 90c5 3 5 10 2 15-3 5-10 5-15 2l-122-96 0 221 208-145c2-1 4-2 6-2 2 0 4 1 6 2l208 145 0-222-122 96c-5 3-11 3-15-2-3-5-2-11 3-16z m-30 286l-39 35c-6 6-16 6-23 0l-39-35c-4-4-5-10-1-15 4-4 10-5 15-1l27 23 0-82c0-6 5-10 10-10 6 0 10 5 10 10l0 82 26-22c2-2 4-3 7-3 3 0 6 1 8 3 4 5 3 11-1 15z"/>
<glyph glyph-name="iconss-73" unicode="&#37;" d="M356 490l-200 0c-26 0-47-21-47-47l0-374c0-26 21-47 47-47l201 0c26 0 47 21 47 47l0 374c-1 26-21 47-48 47z m-200-21l201 0c15 0 26-11 26-26l0-10-253 0 0 10c0 15 11 26 26 26z m226-58l0-308-252 0 0 308z m-26-368l-200 0c-15 0-26 11-26 26l0 13 252 0 0-13c0-15-11-26-26-26z m-100 29c-3 0-6-1-7-3-2-2-3-6-3-8 0-2 1-6 3-7 2-2 5-3 7-3 3 0 6 1 7 3 2 2 3 5 3 7 0 2-1 7-3 8-1 2-4 3-7 3z m-83 184l34-34c2-2 5-3 7-3 2 0 5 1 7 3 4 4 4 11 0 16l-25 25 25 26c4 4 4 11 0 15-4 4-11 4-15 0l-34-34c-2-2-3-5-3-7 0-2 2-5 4-7z m117-34c2-2 5-3 7-3 2 0 5 1 7 3l34 34c2 2 3 5 3 7 0 3-1 6-3 7l-34 34c-4 4-11 4-15 0-4-4-4-11 0-15l25-26-25-25c-3-5-3-11 1-16z m-49-29c1 0 1 0 2 0 5 0 9 4 10 9l23 122c2 6-3 11-8 12-6 1-11-3-12-8l-24-122c-2-6 2-12 9-13z"/>
<glyph glyph-name="iconss-74" unicode="&#38;" d="M221 224l-10 152c-2 30-3 51-3 63 0 18 4 31 13 41 9 10 22 15 36 15 18 0 31-7 37-19 6-12 9-31 9-54 0-14-1-28-2-42l-13-157c-1-18-5-33-9-43-6-10-14-15-25-15-11 0-20 5-24 14-4 11-7 26-9 45z m35-208c-13 0-25 4-34 13-9 8-14 20-14 34 0 14 4 25 13 34 9 9 21 14 34 14 13 0 25-5 34-14 9-9 14-20 14-34 0-14-5-26-14-34-8-9-20-13-33-13z"/>
<glyph glyph-name="dashboard" unicode="&#39;" d="M71 58l370 0c3 0 6 2 9 4 30 43 47 96 47 148 0 134-108 244-241 244-133 0-241-110-241-245 0-51 17-104 47-147 3-2 6-4 9-4z m185 375c122 0 220-100 220-223 0-46-14-93-41-132l-359 0c-27 39-41 85-41 131 1 124 99 224 221 224z m74-136c-12-4-112-39-134-66-13-14-18-31-17-50 1-18 10-35 24-47 12-10 28-16 44-16 20 0 39 9 52 24 23 26 41 131 43 144 1 3-1 7-3 9-2 2-6 3-9 2z m-45-141c-17-20-49-23-69-5-10 8-16 20-17 32-1 14 3 26 11 36 12 14 68 38 109 53-8-43-22-102-34-116z m-188 59c5 0 11 4 11 10 0 83 66 151 148 151 82 0 148-68 148-151 0-5 5-10 11-10 5 0 10 4 10 10 0 94-76 170-169 170-93 0-169-77-169-171 0-5 4-9 10-9z"/>
</font>
</defs>
</svg>
